X   Site Message
(Message will auto close in 2 seconds)

Welcome Guest ( Log In | Register )

> Various Artists - Tributo Al Sangriento Culto Del Sur [compilation] (2009), Black Metal
post Feb 10 2019, 15:34:49
Post #1

Мегаманьяк
***********
Group: Металариец
Posts: 1,577
Releases: 30
On Forums: 1 year 3 months
Thanks: 3334 time(s)
Unknown




*Artist: Various Artists
*Album: Tributo Al Sangriento Culto Del Sur [compilation]
*Year: 2009
*Genre: Black Metal
*Country: Many
*Format: mp3@CBR320kbps
*Size: 184MB

Tracklist:
01.Bloody Cross - Intro - Nema Of Damned
02.Anticristo - Monja Impura
03.Demonic Rage - My Death Is Vengeance
04.Bloody Cross - Second Four... Suicide
05.Noise Kommando - Fear And Pain
06.Evilized - The Trauko Of The Black Moon
07.Black Moon - My Death Is Vengeance
08.Diabolical Messiah - The Reurn Of Quintrala
09.Nergal - Cordero De Dios
10.Maledictum - The Mountain Of The Immortal
11.Beelzebuth - Bloody Winters... Satan Blood
12.Death Living - Shadows In The Grave Of Black Tears On The Sin
13.Pervertor - Impure Act - I Am The Penetrator
14.Behead Christ - Bloody Cross In The Altar, Satan Free
15.Bloody Cross - Epilogo - Satán Vive Y Reina!
16.Bloody Cross - Satan Tomorrow Attack
17.Bloody Cross - Satanas-I Am Immortal
18.Bloody Cross - The Year Of Evil
19.Bloody Cross - Satan Tomorrow Attack (Live)
20.Bloody Cross - Fear And Pain (Live)
21.Bloody Cross - Cebo De Cristo (Live)
******************************
Total playing time: 1:20:20

Extended info
http://www.discogs.com/Various-Tributo-Al-Sangriento-Culto-Del-Sur/release/9905435
это кажется транскод.судя по спектрограмме.


Technical info

Input File: 01 Bloody Cross - Intro - Nema Of Damned.mp3
Channels : 2
Sample Rate : 44100
Precision : 16-bit
Duration : 00:01:01.96 = 2732612 samples = 4647.3 CDDA sectors
File Size : 2.48M
Bit Rate : 320k
Sample Encoding: MPEG audio (layer I, II or III)
Comments :
Title=Pista 01
Artist=Bloody Cross
Album=Tributo Al Sangriento Culto Del Sur
Tracknumber=1/21



Register


Go to the top of the page
  Insert nick Quick quote
+Quote Post
 
Start new topic
Replies (1 - 1)
post Feb 11 2019, 08:49:37
Post #2

Мегаманьяк
***********
Group: Металариец
Posts: 1,527
Releases: 0
On Forums: 2 years 7 months
Thanks: 85 time(s)
United Kingdom


Thanks for sharing this hellish compilation all bands from Chile
Thanks again
Go to the top of the page
  Insert nick Quick quote
+Quote Post

Reply to this topicStart new topic
2 User(s) are reading this topic (2 Guests and 0 Anonymous Users)
0 Members:

 



- Lo-Fi Version Support form
Copyrights and abuse reports form
Time is now: 21st February 2019 - 03:52:28