X   Site Message
(Message will auto close in 2 seconds)

Welcome Guest ( Log In | Register )

> Releases Upload / Добавление релизов

Добавить релиз тут / Click here to add release
Рекомендованные обменники / Recommended file shares

> Gnaw Their Tongues - Kapmeswonden En Haatliederen (2019), Experimental Black Metal
post Feb 10 2019, 15:23:06
Post #1

the faceless one
Group Icon
Group: S-moderation team
Posts: 8,885
Releases: 1742
On Forums: 10 years 6 months
Thanks: 102884 time(s)
Russian Federation




*Artist: Gnaw Their Tongues
*Album: Kapmeswonden En Haatliederen
*Year: 2019
*Genre: Experimental Black Metal
*Country: Netherlands
*Format: mp3@CBR320kbps
*Size: 96MB

Tracklist:
1. Kapmeswonden En Haatliederen 04:14
2. I Recieve My Blessings From Knife-wielding Hands 03:50
3. Devoured By The Beasts Of Despair 06:04
4. Saddleworth Moor 05:11
5. Dag Des Oordeels 06:41
6. Schamel Leden 05:39
7. Cherub Liver 05:08
8. Kapmes 03:50
******************************
Total playing time: 40:37



Extended info
CDr limited to 100 copies.

Recorded between 2013 and 2018.

Абсолютная звуковая дезориентация, сотканная из деталей одержимой Вселенной Mories, музыка незавершённого гештальта, представленная побочными эффектами хроматических тем: какофония гортанных воплей, уничтожающих ударов и трепыхающихся в агонии зловещих искр всевозможных цифровых искажений. Пропасть шума и механизированного хаоса. Каждый трек начинается и заканчивается внезапно, воссоздавая непроницаемое пространство, необходимое для причинения страданий с последующим забвением, своеобразное кровавое пиршество прожорливых личинок, безжалостно поглощающих пронзительно кричащую живую плоть.


Technical info

Input File: 01 Kapmeswonden en Haatliederen.mp3
Channels : 2
Sample Rate : 44100
Precision : 16-bit
Duration : 00:04:14.13 = 11207265 samples = 19060 CDDA sectors
File Size : 10.2M
Bit Rate : 320k
Sample Encoding: MPEG audio (layer I, II or III)
Comments :
Title=Kapmeswonden en Haatliederen
Artist=Gnaw Their Tongues
Album=Kapmeswonden en Haatliederen
Tracknumber=1
Year=2019



Register


Go to the top of the page
  Insert nick Quick quote
+Quote Post
 
Start new topic
Replies (1 - 3)
post Feb 10 2019, 18:19:36
Post #2

antithesis
**************
Group: Металариец
Posts: 2,562
Releases: 30
From: VRN
On Forums: 8 years 8 months
Thanks: 1421 time(s)
Russian Federation


Каждый релиз от Мориса как леденящее кровь откровение. 25.gif


Thanks:
Go to the top of the page
  Insert nick Quick quote
+Quote Post
post Feb 10 2019, 19:01:00
Post #3
BAN
Banned till
Feb 20 2019, 13:33:44



ЦИТАТА(Razorbladeswaltz @ 10th February 2019 - 22:19:36) *
Каждый релиз от Мориса как леденящее кровь откровение.

давно уже совсем наобормот.


Thanks:
(1) CryptOn,
Go to the top of the page
  Insert nick Quick quote
+Quote Post
post Feb 10 2019, 20:54:00
Post #4


***********
Group: Металариец
Posts: 1,808
Releases: 14
From: Казань
On Forums: 9 years 5 months
Thanks: 2300 time(s)
Russian Federation


Внешнее одеяние Вселенной может быть пустым настолько, насколько позволительно созерцающему лицезреть Ее. Только то, что хочет лицезреть. В какой нибудь из проекций сего музыкального изыска будет проецировано то, что страждущий воспримет в одном из его состояний. Доверься Ему. Взыграет Восторг, ужасающий и бесцеремонный - Насладись им. Как и Автор сего музыкального Ремесла. Если в душе твоей - горы пепла , не пытай себя, уже уставший и отстраненный. Найди отражение своей радости в тысяче других водоемов.
Морис совершил свою Джапу. Дело за слушателем.


Go to the top of the page
  Insert nick Quick quote
+Quote Post

Reply to this topicStart new topic
1 User(s) are reading this topic (1 Guests and 0 Anonymous Users)
0 Members:

 



- Lo-Fi Version Support form
Copyrights and abuse reports form
Time is now: 16th February 2019 - 21:49:05