X   Site Message
(Message will auto close in 2 seconds)

Welcome Guest ( Log In | Register )

> Releases Upload / Добавление релизов

Добавить релиз тут / Click here to add release
Рекомендованные обменники / Recommended file shares

> Insurrection - Truth [demo] (1993), Death Metal (D)
post Feb 10 2019, 11:52:29
Post #1

Подвал
**************
Group: Металариец
Posts: 13,061
Releases: 7327
From: Far East (Khabarovsk)
On Forums: 10 years 3 weeks
Thanks: 69373 time(s)
Russian Federation




*Artist: Insurrection
*Album: Truth [demo]
*Year: 1993
*Genre: Death Metal
*Country: South Africa
*Format: mp3@CBR192kbps
*Size: 26MB

Tracklist:
1. In Your Mind 05:09
2. All Consuming Evil 05:41
3. The Law 03:16
4. Truth 05:12
******************************
Total playing time: 19:18



Technical info

Input File: 01-In Your Mind.mp3
Channels : 2
Sample Rate : 44100
Precision : 16-bit
Duration : 00:05:09.02 = 13627914 samples = 23176.7 CDDA sectors
File Size : 7.42M
Bit Rate : 192k
Sample Encoding: MPEG audio (layer I, II or III)
Comments :
Title=In Your Mind
Artist=Insurrection
Album=Truth (Demo)
Tracknumber=01
Year=1993
Genre=22



Register


Go to the top of the page
  Insert nick Quick quote
+Quote Post
 
Start new topic
Replies (1 - 1)
post Feb 11 2019, 14:29:35
Post #2

Три Литра
***
Group: Завсегдатай
Posts: 294
Releases: 54
From: Rostov-on-Don, Russia
On Forums: 12 years 3 months
Thanks: 558 time(s)
Russian Federation


Go to the top of the page
  Insert nick Quick quote
+Quote Post

Reply to this topicStart new topic
1 User(s) are reading this topic (1 Guests and 0 Anonymous Users)
0 Members:

 



- Lo-Fi Version Support form
Copyrights and abuse reports form
Time is now: 21st February 2019 - 03:51:06