X   Site Message
(Message will auto close in 2 seconds)

Welcome Guest ( Log In | Register )

> Releases Upload / Добавление релизов

Добавить релиз тут / Click here to add release
Рекомендованные обменники / Recommended file shares

> Narrenwind - Mojej Bolesnej Śnię Dobrą Śmierć (2018), Black Metal
post Dec 11 2018, 17:11:56
Post #1

Литр
*
Group: Подсевший
Posts: 86
Releases: 48
On Forums: 6 years 4 months
Thanks: 1150 time(s)
Unknown




*Artist: Narrenwind
*Album: Mojej Bolesnej Śnię Dobrą Śmierć
*Year: 2018
*Genre: Black Metal
*Country: Poland
*Format: mp3@CBR320kbps
*Size: 116MB

Tracklist:
01. Wydłużam Cień Boga Ciemności 07:14
02. Mojej Bolesnej śnię Dobrą Śmierć 05:48
03. Niebo po burzy, oczy ranione piorunem 06:01
04. Wiatr Głupców 06:01
05. Boga znienawidź, a zaznasz świętości 05:18
06. Poranek przywitał nas skomleniem 06:24
07. Przemocą wepchnięci w istnienie 07:11
08. Nic 05:19
******************************
Total playing time: 49:16



Extended info
Special for Metalarea.org


Technical info

Input File: NARRENWIND - Mojej Bolesnej śnię Dobrą Śmierć - 01 Wydłużam Cień Boga Ciemności.mp3
Channels : 2
Sample Rate : 44100
Precision : 16-bit
Duration : 00:07:14.10 = 19143810 samples = 32557.5 CDDA sectors
File Size : 17.6M
Bit Rate : 324k
Sample Encoding: MPEG audio (layer I, II or III)
Comments :
Title=Wydłużam Cień Boga Ciemności
Artist=NARRENWIND
Album=Mojej Bolesnej śnię Dobrą Śmierć
Tracknumber=1
Year=2018



Register


Go to the top of the page
  Insert nick Quick quote
+Quote Post
 
Start new topic
Replies (1 - 4)
post Dec 11 2018, 17:38:37
Post #2

the faceless one
Group Icon
Group: S-moderation team
Posts: 8,826
Releases: 1711
On Forums: 10 years 5 months
Thanks: 101711 time(s)
Unknown


fast link
Register


Go to the top of the page
  Insert nick Quick quote
+Quote Post
post Dec 11 2018, 17:48:00
Post #3

Правь статус, ####!111
**************
Group: Металариец
Posts: 36,502
Releases: 537
On Forums: 9 years 7 months
Thanks: 28223 time(s)
Russian Federation


@320

Register
Go to the top of the page
  Insert nick Quick quote
+Quote Post
post Dec 11 2018, 18:06:14
Post #4

Group: Подсевший
Posts: 17
Releases: 0
From: Warszawa
On Forums: 7 years 2 weeks
Thanks: 1 time(s)
Unknown


Thanks man bye.gif bye.gif
Go to the top of the page
  Insert nick Quick quote
+Quote Post
post Dec 13 2018, 08:45:40
Post #5

да.нет.выпью.
**************
Group: Металариец
Posts: 2,403
Releases: 0
On Forums: 2 years 11 months
Thanks: 1422 time(s)
Unknown


это как Furia, только очень аморфная и не вызывающая желания ее слушать.
Go to the top of the page
  Insert nick Quick quote
+Quote Post

Reply to this topicStart new topic
1 User(s) are reading this topic (1 Guests and 0 Anonymous Users)
0 Members:

 



- Lo-Fi Version Support form
Copyrights and abuse reports form
Time is now: 22nd January 2019 - 06:23:28