X   Site Message
(Message will auto close in 2 seconds)

Welcome Guest ( Log In | Register )

> Releases Upload / Добавление релизов

Добавить релиз тут / Click here to add release
Рекомендованные обменники / Recommended file shares

> Rotting Christ - The Heretics (2019), Melodic Black Metal
post Feb 12 2019, 04:44:38
Post #1

Правь статус, ####!111
**************
Group: Металариец
Posts: 16,020
Releases: 10875
From: Г.Харьков
On Forums: 6 years 9 months
Thanks: 180884 time(s)
Unknown




*Artist: Rotting Christ
*Album: The Heretics
*Year: 2019
*Genre: Melodic Black Metal
*Country: Greece
*Format: mp3@CBR320kbps
*Size: 102MB

Tracklist:
1. In the Name of God 04:14
2. Vetry zlye (Ветры злые) 03:13
3. Heaven and Hell and Fire 04:52
4. Hallowed Be Thy Name 05:06
5. Dies Irae 03:46
6. I Believe (Πιστεύω) 03:42
7. Fire God and Fear 04:50
8. The Voice of the Universe 05:23
9. The New Messiah 03:07
10. The Raven 05:23
******************************
Total playing time: 43:36




Extended info
Themis Tolis - Drums (1987-1996, 1997-present) (ex-Varathron, ex-Zemial (live), ex-Black Church)
Sakis Tolis - Vocals, Guitars (1987-present), Bass (1997, 2000, 2002, 2012-present), Keyboards (2004-present) (Thou Art Lord, ex-Desolation, ex-Black Church)
Van Ace - Bass, Vocals (additional) (2014-present) (Full House Brew Crew)
George Emmanuel - Guitars, Vocals (additional) (2014-present) (Lucifer's Child, ex-Valet Parn, ex-Chaostar)



Technical info

Input File: 03 Heaven & Hell & Fire.mp3
Channels : 2
Sample Rate : 44100
Precision : 16-bit
Duration : 00:04:52.23 = 12887123 samples = 21916.9 CDDA sectors
File Size : 12.0M
Bit Rate : 328k
Sample Encoding: MPEG audio (layer I, II or III)
Comments :
Title=Heaven & Hell & Fire
Artist=Rotting Christ
Album=The Heretics
Tracknumber=3
Year=2019
Genre=Black Metal



Register


Thanks:
(149) 1968_janeart, 666days, A.L.Rapsod, AHBAnep, Alexis The Best, andeimon, Appie_Thrasher, Aresson, artscald, Ballisargon, Beazth, BERZERK, Black Cat, BlaspherionFLUL, BleedingSun, Bloodn Lord, cancer1974, caro, cenzored, craP_cillA, CRUNCH, d0zer, DarkHorde, Darkness, DCLXVI-135, deathclaw, delgard, Diflock, djsema4, DMIYUR, draht, dromord, Druidir, dulak, Dunkelgrafen, Fatalv, Femto, Filosofem91, Flamen, fylopaloma, gena, Grev, helvetestoner, HMHamster, Ice Gnoll, idak, Infidel, insufferable, iteration666, judaz, kalmametallinen, Kasper969, KeeLs, kefka, khestanow3001, Kisser, komhs, Konst, kostja, KVRT, lary_veel, legion01, LEGION69, LUCASDEATH, Lyrch, mardak666, marilin, metala, metalfaze, metaljosue, metalwoman, Mihalik, MMMMM, moloko, Mplast, nagval, Nattfodd, Necromayhem, nikolay81, nugorod, Occultas, Old Vyaine, Olethros, Orkkh, Oskulum, Ostinato, Paradayz, Penetralia, pfk505, Phlebotomized, popen13, pouya, QuadenThyrane, Reverend, ripper33, Rosen, rotting13, Rover, Ruben, RUDACHUR, russ777, SadistikSlayer, samari, sandr666, satanist666, savatage13, scorn33, sergey666, Shadowman, SilentNidhogg, Skrilava, SS2998, StabWound, stripnwild, Strygaldwir, suseka, syntexid, talismanFS, TeamatSE, Thunderbird, tireheb, toly1917, tOmV, uk82, v.v.m, VALERY, Vardlokkur, varlam4, vasiljev_sergej, Victim of fate, vir2al, volostakoeto, vov7609, wenca07_doe, WND, Wolfera, WX419, xarmendarizx, xska, yuratroll, ZambuL, zhol, Варонъ, Герб, Колян, Луч, Нигилист, скептик, Смусмумбрик,
Go to the top of the page
  Insert nick Quick quote
+Quote Post
6 Pages V  « < 4 5 6  
Start new topic
Replies (150 - 151)
post Feb 18 2019, 16:50:06
Post #151

for me your flesh
*******
Group: Металариец
Posts: 794
Releases: 0
On Forums: 1 year 6 months
Thanks: 581 time(s)
Unknown


Плюс альбома уже в том, что он лучше предыдущего. Бормотухи стало меньше, Сакис периодически напрягает связки.
И в музыкальном плане все не так тухло, встречаются неплохие цепляющие куски.


Thanks:
(1) ersegoth,
Go to the top of the page
  Insert nick Quick quote
+Quote Post
post Feb 18 2019, 17:28:18
Post #152

Group: Подсевший
Posts: 14
Releases: 0
On Forums: 7 years 10 months
Thanks: 2 time(s)
Russian Federation


Как по мне - точно такой же сборник би-сайдов из Аеало и Кататона, как и предыдущий. И артворк этот с крестами совсем здесь ни к чему.
Go to the top of the page
  Insert nick Quick quote
+Quote Post

6 Pages V  « < 4 5 6
Reply to this topicStart new topic
2 User(s) are reading this topic (2 Guests and 0 Anonymous Users)
0 Members:

 



- Lo-Fi Version Support form
Copyrights and abuse reports form
Time is now: 21st February 2019 - 09:59:05