X   Site Message
(Message will auto close in 2 seconds)

Welcome Guest ( Log In | Register )

> Releases Upload / Добавление релизов

Добавить релиз тут / Click here to add release
Рекомендованные обменники / Recommended file shares

> Verker - Riddle Weaver, The Journey To Darkness And Fate [demo] (2018), Atmospheric Pagan Black Metal
post Feb 11 2019, 15:44:44
Post #1

Serial Uploader
Group Icon
Group: V.I.P
Posts: 33,931
Releases: 32169
From: Lithuania
On Forums: 10 years 8 months
Thanks: 366989 time(s)
Lithuania




*Artist: Verker
*Album: Riddle Weaver, The Journey To Darkness And Fate [demo]
*Year: 2018
*Genre: Atmospheric Pagan Black Metal
*Country: United States
*Format: mp3@CBR320kbps
*Size: 63MB

Tracklist:
01. Inträde (Introduction) 02:52
02. Riddle Weaver Pt.I: The Ride of the Riddles 12:50
03. Riddle Weaver Pt.II: ...Of Life and Death 12:21
******************************
Total playing time: 28:03





Technical info

Input File: 02. Riddle Weaver Pt.I- The Ride of the Riddles.mp3
Channels : 2
Sample Rate : 44100
Precision : 16-bit
Duration : 00:12:50.84 = 33993912 samples = 57812.8 CDDA sectors
File Size : 30.9M
Bit Rate : 321k
Sample Encoding: MPEG audio (layer I, II or III)
Comments :
Title=Riddle Weaver Pt.I: The Ride of the Riddles
Artist=Verker
Album=Riddle Weaver, The Journey to Darkness and Fate (Demo 2018)
Tracknumber=2
Year=2018



Register


Go to the top of the page
  Insert nick Quick quote
+Quote Post
 
Start new topic
Replies (1 - 1)
post Feb 12 2019, 09:37:42
Post #2

Четыре Литра
****
Group: Металариец
Posts: 346
Releases: 0
On Forums: 8 years 1 month
Thanks: 262 time(s)
Ukraine


Verker Serduchker genius.gif


Go to the top of the page
  Insert nick Quick quote
+Quote Post

Reply to this topicStart new topic
2 User(s) are reading this topic (2 Guests and 0 Anonymous Users)
0 Members:

 



- Lo-Fi Version Support form
Copyrights and abuse reports form
Time is now: 21st February 2019 - 09:55:50