X   Site Message
(Message will auto close in 2 seconds)

Welcome Guest ( Log In | Register )

> Releases Upload / Добавление релизов

Добавить релиз тут / Click here to add release
Рекомендованные обменники / Recommended file shares

> Hellnite - Midnight Terrors (2019), Heavy/Thrash Metal
post Feb 11 2019, 14:39:38
Post #1

Serial Uploader
Group Icon
Group: V.I.P
Posts: 33,927
Releases: 32163
From: Lithuania
On Forums: 10 years 8 months
Thanks: 366906 time(s)
Lithuania




*Artist: Hellnite
*Album: Midnight Terrors
*Year: 2019
*Genre: Heavy/Thrash Metal
*Country: Mexico
*Format: mp3@CBR320kbps
*Size: 97MB

Tracklist:
01. Projection
02. Phantom Force
03. Spirits Prevail
04. Beasts from the Deep
05. Thrash of the Living Dead
06. Darker Than Black
07. Stage on Fire
08. The Necromancer
09. Midnight Terror
******************************
Total playing time: 42:09



Technical info

Input File: 2 - Phantom Force.mp3
Channels : 2
Sample Rate : 44100
Precision : 16-bit
Duration : 00:05:47.06 = 15305126 samples = 26029.1 CDDA sectors
File Size : 14.1M
Bit Rate : 324k
Sample Encoding: MPEG audio (layer I, II or III)
Comments :
Title=Phantom Force
Artist=Hellnite
Album=Midnight Terrors
Tracknumber=2
Year=2019
Genre=Rock/Hard Rock/Metal
Discnumber=1



Register


Go to the top of the page
  Insert nick Quick quote
+Quote Post
 
Start new topic
Replies (1 - 2)
post Feb 11 2019, 17:01:45
Post #2

Аннигилятор пивА
Group Icon
Group: V.I.P
Posts: 52,302
Releases: 16538
From: Koenigsberg - TILZIT
On Forums: 12 years 8 months
Thanks: 358085 time(s)
Russian Federation


97mb/320
Register




Thanks:
Go to the top of the page
  Insert nick Quick quote
+Quote Post
post Feb 12 2019, 14:20:24
Post #3

Правь статус, ####!111
**************
Group: Металариец
Posts: 2,119
Releases: 0
From: Dnipro
On Forums: 10 years 7 months
Thanks: 538 time(s)
Ukraine


По моему такой отвратный вокал тут вообще не в тему.
Go to the top of the page
  Insert nick Quick quote
+Quote Post

Reply to this topicStart new topic
2 User(s) are reading this topic (2 Guests and 0 Anonymous Users)
0 Members:

 



- Lo-Fi Version Support form
Copyrights and abuse reports form
Time is now: 20th February 2019 - 15:48:11