X   Site Message
(Message will auto close in 2 seconds)

Welcome Guest ( Log In | Register )

> Releases Upload / Добавление релизов

Добавить релиз тут / Click here to add release
Рекомендованные обменники / Recommended file shares

> Regress - Void Dreamer [ep] (2019), Sludge/Doom Metal
post Feb 11 2019, 23:29:04
Post #1

Правь статус, ####!111
**************
Group: Металариец
Posts: 16,020
Releases: 10875
From: Г.Харьков
On Forums: 6 years 9 months
Thanks: 180884 time(s)
Unknown




*Artist: Regress
*Album: Void Dreamer [ep]
*Year: 2019
*Genre: Sludge/Doom Metal
*Country: Canada
*Format: mp3@CBR320kbps
*Size: 63MB

Tracklist:
1. Mass Grave of Rats 05:30
2. Worms & Bone 04:29
3. Void Dreamer 04:29
4. Suffering 02:39
5. LSD 10:34
******************************
Total playing time: 27:41




Extended info
Jordan Bass, Vocals
See also: Hand of the Horsewitch, Hemptress, Honour and Devour, Meatcutter
Jesse Drums, Vocals
See also: Hemptress, ex-Blood Drunk
David Guitars, Vocals
See also: Hand of the Horsewitch, Trajeto de Cabra, Unholy Disorder, Necroholocaust (live), Honour and Devour, Bridgeburner


Technical info

Input File: 03 - Void Dreamer.mp3
Channels : 2
Sample Rate : 44100
Precision : 16-bit
Duration : 00:04:29.20 = 11871720 samples = 20190 CDDA sectors
File Size : 10.8M
Bit Rate : 320k
Sample Encoding: MPEG audio (layer I, II or III)
Comments :
Title=Void Dreamer
Artist=Regress
Album=Void Dreamer
Tracknumber=3
Year=2019
Genre=Metal



Register


Go to the top of the page
  Insert nick Quick quote
+Quote Post
 
Start new topic
Replies (1 - 1)
post Feb 16 2019, 06:22:31
Post #2

Пусто
**********
Group: Металариец
Posts: 1,337
Releases: 27
From: Санкт-Петербург
On Forums: 12 years 1 month
Thanks: 1354 time(s)
Russian Federation


хорошая музыка, но вокалы вообще не нравятся
Go to the top of the page
  Insert nick Quick quote
+Quote Post

Reply to this topicStart new topic
2 User(s) are reading this topic (2 Guests and 0 Anonymous Users)
0 Members:

 



- Lo-Fi Version Support form
Copyrights and abuse reports form
Time is now: 21st February 2019 - 10:03:08