X   Site Message
(Message will auto close in 2 seconds)

Welcome Guest ( Log In | Register )

> Releases Upload / Добавление релизов

Добавить релиз тут / Click here to add release
Рекомендованные обменники / Recommended file shares

 
Reply to this topicStart new topic
> Bomb Everything - Fountainhead [ep] (1992), Thrash Metal/Industrial/Hardcore
post Feb 10 2019, 09:38:04
Post #1

Подвал
**************
Group: Металариец
Posts: 13,061
Releases: 7327
From: Far East (Khabarovsk)
On Forums: 10 years 3 weeks
Thanks: 69367 time(s)
Russian Federation




*Artist: Bomb Everything
*Album: Fountainhead [ep]
*Year: 1992
*Genre: Thrash Metal/Industrial/Hardcore
*Country: United Kingdom
*Format: mp3@CBR320kbps
*Size: 37MB

Tracklist:
1. Fountainhead 05:31
2. Offer Me Your Mouth 02:42
3. Fatal 04:23
4. Just Like Mine 03:54
******************************
Total playing time: 16:30

Extended info
ex-Bomb Disneyland.


Technical info

Input File: 01-Fountainhead.mp3
Channels : 2
Sample Rate : 48000
Precision : 16-bit
Duration : 00:05:31.37 = 15905808 samples ~ 24852.8 CDDA sectors
File Size : 13.5M
Bit Rate : 326k
Sample Encoding: MPEG audio (layer I, II or III)
Comments :
Title=Fountainhead
Artist=Bomb Everything
Album=Fountainhead (EP)
Tracknumber=01
Year=1992
Genre=Hardcore



Register


Go to the top of the page
  Insert nick Quick quote
+Quote Post

Reply to this topicStart new topic
2 User(s) are reading this topic (2 Guests and 0 Anonymous Users)
0 Members:

 



- Lo-Fi Version Support form
Copyrights and abuse reports form
Time is now: 20th February 2019 - 15:44:03