X   Site Message
(Message will auto close in 2 seconds)

Welcome Guest ( Log In | Register )

> Releases Upload / Добавление релизов

Добавить релиз тут / Click here to add release
Рекомендованные обменники / Recommended file shares

> Evil Within - Darker Than You (2019), Melodic Black/Death Metal
post Feb 8 2019, 09:26:07
Post #1

Аннигилятор пивА
Group Icon
Group: V.I.P
Posts: 52,305
Releases: 16538
From: Koenigsberg - TILZIT
On Forums: 12 years 8 months
Thanks: 358150 time(s)
Russian Federation




*Artist: Evil Within
*Album: Darker Than You
*Year: 2019
*Genre: Melodic Black/Death Metal
*Country: Greece
*Format: mp3@CBR320kbps
*Size: 113MB

Tracklist:
01. Omen
02. Elegy
03. Your God
04. Seth
05. Darker Than You
06. Black Halo
07. Haze
08. You Died
09. Beyond Infinity
10. Life Unlived
******************************
Total playing time: 49:35



Extended info
Evil Within have shaped their sound based on various extreme metal sub-genres.

Jon Lagen - Vocals
Maria Galiatsou - Vocals
Alex Lemonidis - Vocals
Panagiotis Varvaropoulos - Lead Guitars
Dimitris Stathopoulos - Guitars
Dimitris Stavros - Guitars
Leliel Clades - Drums



Technical info

Input File: 03 - Your God.mp3
Channels : 2
Sample Rate : 44100
Precision : 16-bit
Duration : 00:04:37.83 = 12252303 samples = 20837.2 CDDA sectors
File Size : 11.1M
Bit Rate : 320k
Sample Encoding: MPEG audio (layer I, II or III)
Comments :
Title=Your God
Artist=Evil Within
Album=Darker Than You
Tracknumber=3
Year=2019
Genre=Death Metal
Discnumber=1



Register


Go to the top of the page
  Insert nick Quick quote
+Quote Post
 
Start new topic
Replies (1 - 5)
post Feb 8 2019, 14:09:43
Post #2

Три Литра
***
Group: Завсегдатай
Posts: 267
Releases: 1
From: Moscow
On Forums: 6 years 8 months
Thanks: 68 time(s)
Russian Federation


Подпевку - убить об стену.
И так то жалкое творение.


Thanks:
(1) Ostinato,
Go to the top of the page
  Insert nick Quick quote
+Quote Post
post Feb 8 2019, 14:17:42
Post #3

ядерщик-мясогруз
***
Group: Завсегдатай
Posts: 268
Releases: 4
On Forums: 10 years 3 days
Thanks: 144 time(s)
Russian Federation


Нельзя так паразитировать на известной франшизе товарищи греки nono.gif по музыке тоже второсорт
Go to the top of the page
  Insert nick Quick quote
+Quote Post
post Feb 8 2019, 16:32:00
Post #4

Маньяк
**********
Group: Металариец
Posts: 1,055
Releases: 0
On Forums: 7 years 9 months
Thanks: 451 time(s)
Unknown


QUOTE(terrano2006 @ Feb 8 2019, 13:09:43) *
Подпевку - убить об стену.
И так то жалкое творение.

Thank you for the warning!
Go to the top of the page
  Insert nick Quick quote
+Quote Post
post Feb 11 2019, 10:05:33
Post #5

Ъ
**************
Group: Металариец
Posts: 9,381
Releases: 9
On Forums: 10 years 1 month
Thanks: 1803 time(s)
Sweden


Третьесорт.


Thanks:
(1) Ostinato,
Go to the top of the page
  Insert nick Quick quote
+Quote Post
post Feb 12 2019, 15:42:29
Post #6

MDM-Thrash Metal
**************
Group: Металариец
Posts: 7,505
Releases: 425
From: Одесса
On Forums: 11 years 6 months
Thanks: 14169 time(s)
Ukraine


Да уж, к сожалению, но хватило на 2 трека прослушать...
Go to the top of the page
  Insert nick Quick quote
+Quote Post

Reply to this topicStart new topic
2 User(s) are reading this topic (2 Guests and 0 Anonymous Users)
0 Members:

 



- Lo-Fi Version Support form
Copyrights and abuse reports form
Time is now: 21st February 2019 - 03:47:30