X   Site Message
(Message will auto close in 2 seconds)

Welcome Guest ( Log In | Register )

> Releases Upload / Добавление релизов

Добавить релиз тут / Click here to add release
Рекомендованные обменники / Recommended file shares

 
Reply to this topicStart new topic
> Arkhos - Vacío (2019), Groove/Death Metal
post Feb 11 2019, 06:02:05
Post #1

Правь статус, ####!111
**************
Group: Металариец
Posts: 16,020
Releases: 10875
From: Г.Харьков
On Forums: 6 years 9 months
Thanks: 180884 time(s)
Unknown




*Artist: Arkhos
*Album: Vacío
*Year: 2019
*Genre: Groove/Death Metal
*Country: Spain
*Format: mp3@CBR320kbps
*Size: 78MB

Tracklist:
1. Pecados del Padre 06:36
2. William 06:24
3. Sombra 04:49
4. Revelaciones 06:59
5. Vacío 06:43
6. Amanecer 02:16
******************************
Total playing time: 33:47



Extended info
Letra y voz: Artur Bite
Guitarras: Yeray García y Samuel Santos
Bajo: Irene García
Batería: Xabier Recalde


Technical info

Input File: 02 - William.mp3
Channels : 2
Sample Rate : 44100
Precision : 16-bit
Duration : 00:06:24.28 = 16946836 samples = 28821.1 CDDA sectors
File Size : 15.4M
Bit Rate : 321k
Sample Encoding: MPEG audio (layer I, II or III)
Comments :
Title=William
Artist=Arkhos
Album=Vacío
Tracknumber=2
Year=2019



Register


Go to the top of the page
  Insert nick Quick quote
+Quote Post

Reply to this topicStart new topic
2 User(s) are reading this topic (2 Guests and 0 Anonymous Users)
0 Members:

 



- Lo-Fi Version Support form
Copyrights and abuse reports form
Time is now: 21st February 2019 - 10:02:21