X   Site Message
(Message will auto close in 2 seconds)

Welcome Guest ( Log In | Register )

> Rotting Christ - Rituals (2016), Black/Dark Metal
post Feb 11 2016, 01:39:42
Post #1

Serial Uploader
Group Icon
Group: V.I.P
Posts: 33,927
Releases: 32163
From: Lithuania
On Forums: 10 years 8 months
Thanks: 366906 time(s)
Lithuania




*Artist: Rotting Christ
*Album: Rituals
*Year: 2016
*Genre: Black/Dark Metal
*Country: Greece
*Format: mp3@CBR320kbps
*Size: 126MB

Tracklist:
01. In Nomine Dei Nostri 04:57
02. זה נגמר (Ze Nigmar) 04:43
03. Ἐλθὲ κύριε (Elthe Kyrie) 04:49
04. Les Litanies De Satan (Les Fleurs Du Mal) 03:55
05. Ἄπαγε Σατανά (Apage Satana) 03:50
06. Του θάνατου (Tou Thanatou) 03:37
07. For A Voice Like Thunder 06:11
08. Konx Om Pax 06:21
09. देवदेवं (Devadevam) 05:18
10. The Four Horsemen 05:24
11. Lok'tar Ogar (Bonus Track) 04:25
******************************
Total playing time: 53:30







Extended info
CD-rip


Technical info

Input File: 07. For a Voice like Thunder.mp3
Channels : 2
Sample Rate : 44100
Precision : 16-bit
Duration : 00:06:12.02 = 16406126 samples = 27901.6 CDDA sectors
File Size : 14.9M
Bit Rate : 320k
Sample Encoding: MPEG audio (layer I, II or III)
Comments :
Title=For a Voice like Thunder
Artist=Rotting Christ
Album=Rituals
Tracknumber=07/11
Year=2016
Discnumber=1/1



Register


Go to the top of the page
  Insert nick Quick quote
+Quote Post
5 Pages V  « < 3 4 5  
Start new topic
Replies (120 - 121)
post Dec 20 2018, 13:30:33
Post #121

frost junkie
****
Group: Металариец
Posts: 365
Releases: 7
On Forums: 10 years 1 month
Thanks: 289 time(s)
Ukraine


Решил переслушать альбом, который мне не зашел. На припеве "The Four Horsemen" вдруг понял, что мне слышится одноименная песня Von Thronstahl. Полез в вики, оказалось что это кавер прог-роковой вещи 1971 года, причем Von Thronstahl взяли оттуда только припев, а Rotting Christ - всю песню целиком. А еще ее Death SS перепевали. Век живи - век слоупочь.
Go to the top of the page
  Insert nick Quick quote
+Quote Post
post Feb 12 2019, 07:03:31
Post #122

Шесть Литров
******
Group: Металариец
Posts: 683
Releases: 0
On Forums: 7 months 2 weeks
Thanks: 344 time(s)
Russian Federation


123 mb/320 kbps
Register
Go to the top of the page
  Insert nick Quick quote
+Quote Post

5 Pages V  « < 3 4 5
Reply to this topicStart new topic
6 User(s) are reading this topic (6 Guests and 0 Anonymous Users)
0 Members:

 



- Lo-Fi Version Support form
Copyrights and abuse reports form
Time is now: 20th February 2019 - 15:49:34