X   Site Message
(Message will auto close in 2 seconds)

Welcome Guest ( Log In | Register )

> Releases Upload / Добавление релизов

Добавить релиз тут / Click here to add release
Рекомендованные обменники / Recommended file shares

 
Reply to this topicStart new topic
> Eviscerator - Slaves To A Discordant System [ep] (2014), Death Metal
post Feb 12 2019, 00:05:58
Post #1

Правь статус, ####!111
**************
Group: Металариец
Posts: 16,020
Releases: 10875
From: Г.Харьков
On Forums: 6 years 9 months
Thanks: 180884 time(s)
Unknown




*Artist: Eviscerator
*Album: Slaves To A Discordant System [ep]
*Year: 2014
*Genre: Death Metal
*Country: Australia
*Format: mp3@CBR320kbps
*Size: 49MB

Tracklist:
1. The Eviscerator 01:57
2. I Am Fear 03:04
3. Abstract Clarity 03:39
4. Reborn in Shadow 04:16
5. Liars of the Blood Stained Cloth 04:10
6. Slaves to a Discordant System 04:04
******************************
Total playing time: 21:10




Extended info
Matt Simpson Bass
Tim Cover Drums
Sam Hill Guitars
Ben Quin Vocals
See also: Netherealm


Technical info

Input File: 04 - Reborn in Shadow.mp3
Channels : 2
Sample Rate : 44100
Precision : 16-bit
Duration : 00:04:16.77 = 11323601 samples = 19257.8 CDDA sectors
File Size : 10.4M
Bit Rate : 325k
Sample Encoding: MPEG audio (layer I, II or III)
Comments :
Title=Reborn in Shadow
Artist=Eviscerator
Album=Slaves to a Discordant System
Tracknumber=4
Year=2014
Genre=Rock;Metal
Discnumber=1



Register


Go to the top of the page
  Insert nick Quick quote
+Quote Post

Reply to this topicStart new topic
1 User(s) are reading this topic (1 Guests and 0 Anonymous Users)
0 Members:

 



- Lo-Fi Version Support form
Copyrights and abuse reports form
Time is now: 21st February 2019 - 10:00:33