X   Site Message
(Message will auto close in 2 seconds)

Welcome Guest ( Log In | Register )

> Releases Upload / Добавление релизов

Добавить релиз тут / Click here to add release
Рекомендованные обменники / Recommended file shares

> Cloak Of Altering - None [ep] (2013), Black Metal
post Feb 10 2019, 13:46:31
Post #1

the faceless one
Group Icon
Group: S-moderation team
Posts: 8,895
Releases: 1746
On Forums: 10 years 6 months
Thanks: 103054 time(s)
Russian Federation




*Artist: Cloak Of Altering
*Album: None [ep]
*Year: 2013
*Genre: Black Metal
*Country: Netherlands
*Format: mp3@CBR320kbps
*Size: 53MB

Tracklist:
1. None 02:16
2. None Flesh 04:43
3. Particle Mist 04:48
4. Unending Deities 05:10
5. Plane Of The Seven Earths 05:33
******************************
Total playing time: 22:30



Technical info

Input File: 01 - None.mp3
Channels : 2
Sample Rate : 44100
Precision : 16-bit
Duration : 00:02:16.00 = 5997600 samples = 10200 CDDA sectors
File Size : 5.44M
Bit Rate : 320k
Sample Encoding: MPEG audio (layer I, II or III)
Comments :
Title=None
Artist=Cloak of Altering
Album=None EP
Tracknumber=01
Year=2013
Genre=Black Metal



Register


Go to the top of the page
  Insert nick Quick quote
+Quote Post
 
Start new topic
Replies (1 - 1)
post Feb 12 2019, 20:18:22
Post #2


***********
Group: Металариец
Posts: 1,812
Releases: 14
From: Казань
On Forums: 9 years 5 months
Thanks: 2304 time(s)
Russian Federation


Мрачнейший индустриальный марафон по дорогам синтезированного будущего. Будущего, где механика и индустриальный патоген сплелись в геноме природного ландшафта, а фотосинтез обрел размах наркотической сферы, с привкусом железа и ртути. Техногенный мрачный пейзаж в дорогах звуковых инверсий напоминает гигеровскую эпоху Антиутопии и голограмму кинопленочных страхов, которые вживаются в тебя клещами; пускают кислоту глубоко в зараженный кибер социум, бездушный и пустой, мумифицированный остовами разорвавшихся ракет и радиоактивных ям. Музыка, такая же бездушная и механическая, ранит имплантированные сердца реакциями распадов под гимны чего то ужасного, говорящего и безжизненного. Снабжаемое механическими плетьми, с лязгом охаживающими их ржавое тело, человечество шествует в поисках топлива с блеском метана в водянистых глазницах. Человечество ползет под гимны Ужасного Тотемного чудовища, нет ни бога, ни дьявола, есть лишь бесконечный механизм Пустоты снабженный звуками-приказаниями. Человечество ничтожно и счастливо - дети цифровой матрицы.


Go to the top of the page
  Insert nick Quick quote
+Quote Post

Reply to this topicStart new topic
1 User(s) are reading this topic (1 Guests and 0 Anonymous Users)
0 Members:

 



- Lo-Fi Version Support form
Copyrights and abuse reports form
Time is now: 21st February 2019 - 09:57:06