X   Site Message
(Message will auto close in 2 seconds)

Welcome Guest ( Log In | Register )

> Releases Upload / Добавление релизов

Добавить релиз тут / Click here to add release
Рекомендованные обменники / Recommended file shares

> Insurrection - Umnikelo [ep] (1996), Death Metal (D)
post Feb 10 2019, 11:08:43
Post #1

Подвал
**************
Group: Металариец
Posts: 13,064
Releases: 7327
From: Far East (Khabarovsk)
On Forums: 10 years 3 weeks
Thanks: 69378 time(s)
Russian Federation




*Artist: Insurrection
*Album: Umnikelo [ep]
*Year: 1996
*Genre: Death Metal
*Country: South Africa
*Format: mp3@CBR192kbps
*Size: 34MB

Tracklist:
1. Umnikelo 06:41
2. Ritual 04:54
3. Annointed In Blood 04:48
4. Inkosi Sikelel Ukufa 04:50
5. Freedom Fighters 03:35
******************************
Total playing time: 24:48



Technical info

Input File: 01-Umnikelo.mp3
Channels : 2
Sample Rate : 44100
Precision : 16-bit
Duration : 00:06:41.08 = 17687408 samples = 30080.6 CDDA sectors
File Size : 9.63M
Bit Rate : 192k
Sample Encoding: MPEG audio (layer I, II or III)
Comments :
Title=Umnikelo
Artist=Insurrection
Album=Umnikelo (EP)
Tracknumber=01
Year=1996
Genre=22



Register


Go to the top of the page
  Insert nick Quick quote
+Quote Post
 
Start new topic
Replies (1 - 1)
post Feb 11 2019, 14:29:52
Post #2

Три Литра
***
Group: Завсегдатай
Posts: 294
Releases: 54
From: Rostov-on-Don, Russia
On Forums: 12 years 3 months
Thanks: 558 time(s)
Russian Federation


Go to the top of the page
  Insert nick Quick quote
+Quote Post

Reply to this topicStart new topic
3 User(s) are reading this topic (3 Guests and 0 Anonymous Users)
0 Members:

 



- Lo-Fi Version Support form
Copyrights and abuse reports form
Time is now: 21st February 2019 - 10:02:53