X   Site Message
(Message will auto close in 2 seconds)

Welcome Guest ( Log In | Register )

> Releases Upload / Добавление релизов

Добавить релиз тут / Click here to add release
Рекомендованные обменники / Recommended file shares

> Black Smoke - Holy Reptilian Mother (2019), Sludge
post Feb 11 2019, 03:57:17
Post #1

Правь статус, ####!111
**************
Group: Металариец
Posts: 16,015
Releases: 10871
From: Г.Харьков
On Forums: 6 years 9 months
Thanks: 180810 time(s)
Unknown




*Artist: Black Smoke
*Album: Holy Reptilian Mother
*Year: 2019
*Genre: Sludge
*Country: Poland
*Format: mp3@CBR320kbps
*Size: 95MB

Tracklist:
1. The Last Of Us 02:26
2. Iron Lung 04:55
3. Stormtripper! Shroomtripper! 05:42
4. Ethanol 06:20
5. Connection Was Severed 05:02
6. Acid Is Not A Cheap Wine 05:25
7. Release The Cocken 03:34
8. Holy Reptilian Mother 07:41
******************************
Total playing time: 41:05




Extended info
Piotr Hucał Bass
Gniewko Świątek Drums
Krzysztof Szczypka Guitars
Damian Śnieżek Vocals


Technical info

Input File: 03 Stormtripper! Shroomtripper!.mp3
Channels : 2
Sample Rate : 44100
Precision : 16-bit
Duration : 00:05:42.22 = 15092034 samples = 25666.7 CDDA sectors
File Size : 13.8M
Bit Rate : 323k
Sample Encoding: MPEG audio (layer I, II or III)
Comments :
Title=Stormtripper! Shroomtripper!
Artist=Black Smoke
Album=Holy Reptilian Mother
Tracknumber=3
Year=2019



Register


Go to the top of the page
  Insert nick Quick quote
+Quote Post
 
Start new topic
Replies (1 - 1)
post Feb 11 2019, 12:44:27
Post #2

Правь статус, ####!111
**************
Group: Металариец
Posts: 37,298
Releases: 547
On Forums: 9 years 8 months
Thanks: 28712 time(s)
Russian Federation


Ординарно и абсолютно не зло.
Go to the top of the page
  Insert nick Quick quote
+Quote Post

Reply to this topicStart new topic
2 User(s) are reading this topic (2 Guests and 0 Anonymous Users)
0 Members:

 



- Lo-Fi Version Support form
Copyrights and abuse reports form
Time is now: 20th February 2019 - 15:42:22