X   Site Message
(Message will auto close in 2 seconds)

Welcome Guest ( Log In | Register )

> Releases Upload / Добавление релизов

Добавить релиз тут / Click here to add release
Рекомендованные обменники / Recommended file shares

 
Reply to this topicStart new topic
> Septic Convulsions - Septic Convulsions [demo] (2019), Brutal Death Metal/Goregrind
post Feb 11 2019, 13:25:18
Post #1

Serial Uploader
Group Icon
Group: V.I.P
Posts: 33,931
Releases: 32169
From: Lithuania
On Forums: 10 years 8 months
Thanks: 366989 time(s)
Lithuania




*Artist: Septic Convulsions
*Album: Septic Convulsions [demo]
*Year: 2019
*Genre: Brutal Death Metal/Goregrind
*Country: United States
*Format: mp3@CBR320kbps
*Size: 16MB

Tracklist:
01. Fleshpod 02:53
02. Metastasized 02:25
03. Livid 01:31
******************************
Total playing time: 6:49



Technical info

Input File: 02. metastasized.mp3
Channels : 2
Sample Rate : 44100
Precision : 16-bit
Duration : 00:02:25.35 = 6410067 samples = 10901.5 CDDA sectors
File Size : 5.97M
Bit Rate : 328k
Sample Encoding: MPEG audio (layer I, II or III)
Comments :
Title=metastasized
Artist=SEPTIC CONVULSIONS
Album=s/t demo
Tracknumber=2
Year=2019



Register


Go to the top of the page
  Insert nick Quick quote
+Quote Post

Reply to this topicStart new topic
3 User(s) are reading this topic (3 Guests and 0 Anonymous Users)
0 Members:

 



- Lo-Fi Version Support form
Copyrights and abuse reports form
Time is now: 21st February 2019 - 10:03:11