X   Site Message
(Message will auto close in 2 seconds)

Welcome Guest ( Log In | Register )

> Releases Upload / Добавление релизов

Добавить релиз тут / Click here to add release
Рекомендованные обменники / Recommended file shares

 
Reply to this topicStart new topic
> Narph - Unfold (2019), Progressive Heavy/Thrash Metal
post Feb 11 2019, 04:40:13
Post #1

Правь статус, ####!111
**************
Group: Металариец
Posts: 16,020
Releases: 10875
From: Г.Харьков
On Forums: 6 years 9 months
Thanks: 180884 time(s)
Unknown




*Artist: Narph
*Album: Unfold
*Year: 2019
*Genre: Progressive Heavy/Thrash Metal
*Country: Germany
*Format: mp3@CBR320kbps
*Size: 151MB

Tracklist:
1. Intro
2. Beyond
3. Doomed To Fail
4. Hope & Salvation
5. Hate & Oppression
6. Sublime
7. Imperial
8. Vision
9. Drake
10. Playground
11. Observer
12. Dawn
13. Light Heart
14. Night
15. Father The Lights
******************************
Total playing time: 1:05:26



Extended info
Matti Narph - Vocals und Gitarre
Matthias Narph - Gitarre
Andre Narph- Bass
Jens Narph - Drums


Technical info

Input File: 07 - Imperial.mp3
Channels : 2
Sample Rate : 44100
Precision : 16-bit
Duration : 00:04:08.91 = 10976843 samples = 18668.1 CDDA sectors
File Size : 10.1M
Bit Rate : 324k
Sample Encoding: MPEG audio (layer I, II or III)
Comments :
Title=Imperial
Artist=Narph
Album=Unfold
Tracknumber=7
Year=2019



Register


Go to the top of the page
  Insert nick Quick quote
+Quote Post

Reply to this topicStart new topic
2 User(s) are reading this topic (2 Guests and 0 Anonymous Users)
0 Members:

 



- Lo-Fi Version Support form
Copyrights and abuse reports form
Time is now: 21st February 2019 - 10:01:20